osu file format v14

[General]
AudioFilename: good.mp3
AudioLeadIn: 1500
PreviewTime: 26193
Countdown: 0
SampleSet: Soft
StackLeniency: 1
Mode: 0
LetterboxInBreaks: 0
WidescreenStoryboard: 0

[Editor]
Bookmarks: 5355,103512,104012,125382
DistanceSpacing: 0.55
BeatDivisor: 4
GridSize: 4
TimelineZoom: 2.999999

[Metadata]
Title:The Good Left Undone
TitleUnicode:The Good Left Undone
Artist:Rise Against
ArtistUnicode:Rise Against
Creator:pishifat
Version:Extra
Source:
Tags:the sufferer & and witness metal punk milan-
BeatmapID:795712
BeatmapSetID:351431

[Difficulty]
HPDrainRate:6
CircleSize:5
OverallDifficulty:8
ApproachRate:9
SliderMultiplier:1.6
SliderTickRate:2

[Events]
//Background and Video events
0,0,"hi please rank my map thank u.jpg",0,0
//Break Periods
2,57477,59293
//Storyboard Layer 0 (Background)
//Storyboard Layer 1 (Fail)
//Storyboard Layer 2 (Pass)
//Storyboard Layer 3 (Foreground)
//Storyboard Sound Samples

[TimingPoints]
219,302.076777847703,4,2,0,50,1,0
219,-166.666666666667,4,2,0,50,0,0
5052,-166.666666666667,4,2,0,60,0,0
5203,304.568527918782,4,2,0,60,1,1
5203,-117.647058823529,4,2,0,60,0,0
6116,304.568527918782,4,2,0,60,1,0
6116,-117.647058823529,4,2,0,60,0,0
7181,-166.666666666667,4,2,0,60,0,0
7486,-117.647058823529,4,2,0,60,0,0
9618,-166.666666666667,4,2,0,60,0,0
9923,-117.647058823529,4,2,0,60,0,0
10836,-142.857142857143,4,2,0,60,0,0
11141,-117.647058823529,4,2,0,60,0,0
12055,-166.666666666667,4,2,0,60,0,0
12359,-117.647058823529,4,2,0,60,0,0
14696,304.568527918782,4,2,0,60,1,0
15000,-117.647058823529,4,2,0,60,0,0
15914,-117.647058823529,4,2,0,60,0,0
16980,-166.666666666667,4,2,0,60,0,0
17284,-117.647058823529,4,2,0,60,0,0
19416,-166.666666666667,4,2,0,60,0,0
19721,-117.647058823529,4,2,0,60,0,0
20635,-142.857142857143,4,2,0,60,0,0
20939,-117.647058823529,4,2,0,60,0,0
21853,-166.666666666667,4,2,0,60,0,0
22157,-117.647058823529,4,2,0,60,0,0
26726,-105.263157894737,4,2,0,70,0,0
26878,302.076777847703,4,2,0,70,1,0
29294,-133.333333333333,4,2,0,70,0,0
29596,-111.111111111111,4,2,0,70,0,0
29898,-133.333333333333,4,2,0,70,0,0
30200,-111.111111111111,4,2,0,70,0,0
30502,-100,4,2,0,70,0,0
34127,-100,4,2,0,70,0,0
34429,-100,4,2,0,70,0,0
34731,-100,4,2,0,70,0,0
35034,-100,4,2,0,70,0,0
35336,-100,4,2,0,70,0,0
36393,-105.263157894737,4,2,0,70,0,0
41269,500,4,2,0,60,1,1
41269,-125,4,2,0,60,0,1
56269,302.076777847703,4,2,0,50,1,0
59893,-166.666666666667,4,2,0,50,0,0
60951,-125,4,2,0,50,0,0
62461,304.568527918782,4,2,0,60,1,1
62461,-117.647058823529,4,2,0,60,0,0
63374,304.568527918782,4,2,0,60,1,0
63374,-117.647058823529,4,2,0,60,0,0
64439,-166.666666666667,4,2,0,60,0,0
64744,-117.647058823529,4,2,0,60,0,0
66876,-166.666666666667,4,2,0,60,0,0
67181,-117.647058823529,4,2,0,60,0,0
68094,-142.857142857143,4,2,0,60,0,0
68399,-117.647058823529,4,2,0,60,0,0
69313,-166.666666666667,4,2,0,60,0,0
69617,-117.647058823529,4,2,0,60,0,0
71924,304.568527918782,4,2,0,60,1,0
72228,-117.647058823529,4,2,0,60,0,0
73141,-117.647058823529,4,2,0,60,0,0
74208,-166.666666666667,4,2,0,60,0,0
74512,-117.647058823529,4,2,0,60,0,0
76644,-166.666666666667,4,2,0,60,0,0
76949,-117.647058823529,4,2,0,60,0,0
77863,-142.857142857143,4,2,0,60,0,0
78167,-117.647058823529,4,2,0,60,0,0
79081,-166.666666666667,4,2,0,60,0,0
79385,-117.647058823529,4,2,0,60,0,0
83954,-105.263157894737,4,2,0,70,0,0
84088,302.076777847703,4,2,0,70,1,0
84390,-105.263157894737,4,2,0,70,0,0
86504,-133.333333333333,4,2,0,70,0,0
86806,-111.111111111111,4,2,0,70,0,0
87108,-133.333333333333,4,2,0,70,0,0
87712,-125,4,2,0,70,0,0
88770,-105.263157894737,4,2,0,70,0,0
93603,-105.263157894737,4,2,0,70,0,0
94056,-90.9090909090909,4,2,0,70,0,0
94358,-105.263157894737,4,2,0,70,0,0
98512,500,4,2,0,60,1,1
98512,-125,4,2,0,60,0,1
106512,498.960498960499,4,2,0,60,1,1
106512,-125,4,2,0,60,0,1
113497,508.474576271186,4,2,0,60,1,1
113497,-125,4,2,0,60,0,0
114513,500,4,2,0,60,1,1
114513,-125,4,2,0,60,0,1
122513,498.960498960499,4,2,0,60,1,1
122513,-125,4,2,0,60,0,1
129498,-100,4,2,0,60,0,0

[Colours]
Combo1 : 136,170,174
Combo2 : 219,163,121
Combo3 : 141,131,186
Combo4 : 204,134,134

[HitObjects]
62,138,2635,6,0,B|53:128|39:126|27:131,5,23.9999992675781,2|0|0|0|0|0,0:3|0:0|0:0|0:0|0:0|0:0,0:0:0:0:
135,102,3088,2,0,B|148:97|157:86|160:73,5,23.9999992675781,2|0|0|0|0|0,0:3|0:0|0:0|0:0|0:0|0:0,0:0:0:0:
132,184,3541,1,2,0:3:0:0:
132,184,3843,6,0,B|128:196|133:209|143:216,5,23.9999992675781,2|0|0|0|0|0,0:3|0:0|0:0|0:0|0:0|0:0,0:0:0:0:
201,146,4297,1,0,1:0:0:0:
227,141,4372,1,0,1:0:0:0:
253,147,4448,1,0,1:0:0:0:
274,160,4523,1,0,1:0:0:0:
299,171,4599,1,0,1:0:0:0:
325,171,4674,1,0,1:0:0:0:
349,165,4750,1,0,1:0:0:0:
352,168,5052,5,4,3:2:0:0:
315,23,5203,2,0,L|309:90,1,68.0000012969971,0|0,1:0|0:0,0:0:0:0:
331,258,5507,1,0,3:0:0:0:
331,258,5659,1,0,3:0:0:0:
436,144,5812,2,0,B|426:120|407:102|386:92,1,68.0000012969971,0|0,1:0|0:0,0:0:0:0:
268,187,6116,5,0,3:0:0:0:
352,168,6268,1,0,3:0:0:0:
243,276,6420,1,0,1:0:0:0:
396,321,6572,2,0,B|413:300|419:273|415:249,1,68.0000012969971,0|0,0:0|3:0,0:0:0:0:
289,98,6877,1,0,3:0:0:0:
243,276,7029,1,0,1:0:0:0:
289,98,7181,6,0,B|239:96|239:96|219:88|195:74,1,95.9999970703126,0|0,3:0|3:0,0:0:0:0:
133,136,7638,6,0,L|57:145,1,68.0000012969971,0|0,1:0|0:0,0:0:0:0:
185,211,7943,1,0,3:0:0:0:
185,211,8095,1,0,3:0:0:0:
123,53,8247,2,0,B|99:29|62:27|36:45,1,68.0000012969971,0|0,1:0|0:0,0:0:0:0:
185,211,8552,6,0,L|331:222,1,136.000002593994,0|0,3:0|1:0,0:0:0:0:
95,217,9009,2,0,B|67:234|55:268|63:297,1,68.0000012969971,0|0,0:0|3:0,0:0:0:0:
231,286,9313,1,0,3:0:0:0:
133,136,9466,1,0,1:0:0:0:
153,384,9618,6,0,B|148:342|148:342|149:329|149:329|143:280,1,95.9999970703126,0|0,3:0|3:0,0:0:0:0:
185,211,10075,6,0,L|277:218,1,68.0000012969971,0|0,1:0|0:0,0:0:0:0:
388,177,10379,1,0,3:0:0:0:
264,226,10532,1,0,3:0:0:0:
193,112,10684,1,0,1:0:0:0:
300,140,10836,6,0,B|311:79|311:79|331:63|363:50,1,111.999996582031,0|0,3:0|3:0,0:0:0:0:
431,83,11293,5,0,1:0:0:0:
234,198,11445,2,0,B|213:174|206:143|211:115,1,68.0000012969971,0|0,0:0|3:0,0:0:0:0:
388,163,11750,1,0,3:0:0:0:
336,312,11902,1,0,1:0:0:0:
493,240,12055,6,0,B|450:242|450:242|439:246|439:246|381:249,1,95.9999970703126,0|0,3:0|3:0,0:0:0:0:
336,312,12511,6,0,B|304:318|273:306|252:285,1,68.0000012969971,0|0,1:0|0:0,0:0:0:0:
300,140,12816,1,0,3:0:0:0:
318,228,12968,1,0,3:0:0:0:
361,77,13121,1,0,1:0:0:0:
234,198,13273,1,0,3:0:0:0:
200,26,13425,5,0,1:0:0:0:
214,36,13730,1,8,0:3:0:0:
139,192,14034,5,0,1:0:0:0:
75,134,14187,1,8,0:3:0:0:
89,52,14339,1,4,0:3:0:0:
64,225,14491,1,0,1:0:0:0:
64,225,14848,5,4,3:2:0:0:
187,268,15000,2,0,B|218:266|245:251|264:230,1,68.0000012969971,0|0,1:0|0:0,0:0:0:0:
162,109,15305,1,0,3:0:0:0:
162,109,15457,1,0,3:0:0:0:
310,95,15609,2,0,L|385:103,1,68.0000012969971,0|0,1:0|0:0,0:0:0:0:
454,283,15914,6,0,B|414:277|388:237|400:195|430:175,1,136.000002593994,0|0,3:0|1:0,0:0:0:0:
317,238,16371,2,0,L|232:245,1,68.0000012969971,0|0,0:0|3:0,0:0:0:0:
117,176,16675,1,0,3:0:0:0:
188,309,16827,1,0,1:0:0:0:
291,129,16980,6,0,B|255:131|224:144|198:165,1,95.9999970703126,0|0,3:0|3:0,0:0:0:0:
117,176,17437,6,0,L|35:167,1,68.0000012969971,0|0,1:0|0:0,0:0:0:0:
178,79,17741,1,0,3:0:0:0:
178,79,17893,1,0,3:0:0:0:
172,248,18046,2,0,B|196:273|231:278|260:266,1,68.0000012969971,0|0,1:0|0:0,0:0:0:0:
87,259,18350,6,0,B|45:258|11:298|20:345|52:367,1,136.000002593994,0|0,3:0|1:0,0:0:0:0:
117,176,18807,2,0,B|117:150|104:128|85:114,1,68.0000012969971,0|0,0:0|3:0,0:0:0:0:
172,248,19112,1,0,3:0:0:0:
240,152,19264,1,0,1:0:0:0:
141,325,19416,6,0,B|186:329|186:329|194:332|194:332|250:338,1,95.9999970703126,0|0,3:0|3:0,0:0:0:0:
311,379,19873,6,0,B|341:380|368:366|385:345,1,68.0000012969971,0|0,1:0|0:0,0:0:0:0:
301,203,20178,1,0,3:1:0:0:
301,203,20330,1,0,3:0:0:0:
238,264,20482,1,0,1:0:0:0:
464,239,20635,6,0,B|439:239|411:223|411:223|376:245|388:284,1,111.999996582031,0|0,3:0|3:0,0:0:0:0:
409,349,21091,5,0,1:0:0:0:
461,155,21244,2,0,B|457:128|441:107|420:94,1,68.0000012969971,0|0,0:0|3:0,0:0:0:0:
301,203,21548,1,0,3:0:0:0:
385,269,21701,1,0,1:0:0:0:
148,297,21853,6,0,B|192:268|245:263,1,95.9999970703126,0|0,3:0|3:0,0:0:0:0:
254,121,22310,6,0,B|225:139|212:173|220:204,1,68.0000012969971,0|0,1:0|0:0,0:0:0:0:
263,354,22614,1,0,3:0:0:0:
263,354,22767,1,0,3:0:0:0:
301,203,22919,1,0,1:0:0:0:
385,269,23071,1,0,3:0:0:0:
148,297,23223,5,0,3:0:0:0:
160,306,23528,1,0,1:0:0:0:
103,123,23833,5,0,3:0:0:0:
19,157,23985,1,0,3:0:0:0:
161,196,24137,2,0,L|234:201,1,68.0000012969971,0|0,1:0|0:0,0:0:0:0:
333,53,24442,5,0,1:0:0:0:
235,124,24594,1,0,3:0:0:0:
297,25,24746,5,0,1:0:0:0:
276,189,24899,1,0,3:0:0:0:
252,11,25051,5,0,1:0:0:0:
347,179,25203,1,0,3:0:0:0:
206,13,25355,5,0,1:0:0:0:
381,111,25508,1,0,3:0:0:0:
143,73,25660,6,0,B|126:98|123:128|134:154,1,68.0000012969971,0|8,1:0|0:3,0:0:0:0:
139,149,25888,1,8,0:3:0:0:
153,156,25965,1,8,0:3:0:0:
235,124,26117,1,8,0:3:0:0:
322,248,26269,1,8,0:3:0:0:
338,245,26345,1,0,0:0:0:0:
354,242,26421,1,4,0:3:0:0:
371,240,26498,1,0,0:0:0:0:
387,238,26574,1,8,0:3:0:0:
237,215,26726,6,0,B|228:276|228:276|243:300|243:300|235:372,1,151.999995941162,4|0,3:2|3:0,0:0:0:0:
73,269,27180,2,0,B|91:237|133:227|164:247,1,80,0|0,1:0|0:0,0:0:0:0:
331,363,27482,2,0,L|240:369,1,80,0|0,3:0|3:0,0:0:0:0:
157,331,27784,1,0,1:0:0:0:
338,242,27935,1,0,0:0:0:0:
328,252,28010,1,0,0:0:0:0:
318,262,28086,6,0,B|278:248|261:202|281:165,1,80,0|0,3:2|3:0,0:0:0:0:
302,34,28388,1,0,1:0:0:0:
390,117,28539,2,0,L|300:123,1,80,0|0,0:0|3:0,0:0:0:0:
136,135,28841,1,0,3:0:0:0:
211,23,28992,1,0,1:0:0:0:
201,190,29143,1,0,0:0:0:0:
204,203,29219,1,0,0:0:0:0:
207,217,29294,6,0,B|226:233|251:236|273:228,1,60.0000022888184,4|0,3:2|3:0,0:0:0:0:
390,117,29596,2,0,B|358:153|358:153|346:226,1,107.999996704102,4|0,1:0|0:0,0:0:0:0:
351,346,29898,6,0,B|331:331|321:308|321:285,1,60.0000022888184,0|0,3:0|3:0,0:0:0:0:
505,256,30200,2,0,B|466:279|466:279|384:283,1,107.999996704102,0|0,1:0|0:0,0:0:0:0:
263,230,30502,6,0,B|230:231|204:253|195:281,1,80,0|0,3:0|3:0,0:0:0:0:
276,146,30804,2,0,B|255:120|222:110|193:118,1,80,0|0,1:0|3:0,0:0:0:0:
36,206,31107,1,0,1:0:0:0:
142,54,31258,1,0,3:0:0:0:
119,243,31409,1,0,1:0:0:0:
225,22,31560,6,0,B|269:2|314:15|314:15|303:44|303:44|312:103,1,160,4|0,3:2|3:0,0:0:0:0:
460,98,32013,2,0,B|442:60|397:45|360:64,1,80,0|0,1:0|0:0,0:0:0:0:
293,210,32315,2,0,L|380:198,1,80,0|0,3:0|3:0,0:0:0:0:
472,186,32617,1,0,1:0:0:0:
253,277,32768,1,0,0:0:0:0:
240,272,32844,1,0,0:0:0:0:
227,264,32919,6,0,B|199:236|198:192|223:163,1,80,0|0,3:2|3:0,0:0:0:0:
368,200,33221,1,0,1:0:0:0:
320,327,33372,2,0,B|292:358|248:365|214:347,1,80,0|0,0:0|3:0,0:0:0:0:
371,203,33674,2,0,B|408:200|440:222|453:253,1,80,0|0,3:0|1:0,0:0:0:0:
258,134,33976,1,0,3:0:0:0:
263,120,34052,1,0,0:0:0:0:
269,106,34127,5,4,1:2:0:0:
196,189,34278,1,0,3:0:0:0:
193,99,34429,5,0,1:0:0:0:
228,214,34580,1,0,3:0:0:0:
241,41,34731,5,0,1:0:0:0:
159,204,34883,1,0,3:0:0:0:
166,37,35034,5,0,1:0:0:0:
190,231,35185,1,0,3:0:0:0:
352,115,35336,6,0,L|343:59,2,40,0|0|0,1:0|1:0|1:0,0:0:0:0:
418,285,35638,1,0,1:0:0:0:
449,96,35789,1,0,1:0:0:0:
332,254,35940,5,0,1:0:0:0:
352,115,36091,1,8,0:3:0:0:
457,198,36242,1,4,0:3:0:0:
271,168,36393,6,0,B|263:112|263:112|273:77|273:77|261:0,1,151.999995941162,4|0,3:2|3:0,0:0:0:0:
140,213,36846,2,0,B|166:236|206:234|230:210,1,75.9999979705811,0|0,1:0|0:0,0:0:0:0:
139,73,37148,2,0,B|112:89|100:119|106:147,1,75.9999979705811,0|0,3:0|3:0,0:0:0:0:
271,168,37450,1,0,1:0:0:0:
56,209,37601,6,0,B|23:253|23:253|15:377,1,151.999995941162,4|0,3:2|3:0,0:0:0:0:
237,335,38054,2,0,L|232:239,1,75.9999979705811,0|0,1:0|0:0,0:0:0:0:
188,137,38356,1,0,3:0:0:0:
188,137,38507,1,0,3:0:0:0:
325,44,38658,2,0,B|357:34|391:48|407:75,1,75.9999979705811,0|0,1:0|0:0,0:0:0:0:
454,254,38961,5,8,3:0:0:0:
471,113,39112,1,0,3:0:0:0:
442,267,39263,2,0,B|406:279|406:279|355:274,1,75.9999979705811,0|0,1:0|3:0,0:0:0:0:
211,193,39565,5,4,3:0:0:0:
237,335,39716,1,0,3:0:0:0:
200,182,39867,2,0,B|162:168|162:168|100:170,1,75.9999979705811,0|0,1:0|3:0,0:0:0:0:
322,349,40169,5,2,1:3:0:0:
377,101,41269,6,0,L|298:99,1,64,4|0,3:2|3:0,0:0:0:0:
118,154,41769,1,0,1:0:0:0:
118,154,42269,2,0,B|140:132|168:122|196:123,1,64,0|0,3:0|3:0,0:0:0:0:
336,232,42769,2,0,B|313:214|285:207|259:210,1,64,0|0,1:0|3:0,0:0:0:0:
87,332,43269,6,0,L|230:317,1,128,4|0,3:1|1:0,0:0:0:0:
317,57,44269,2,0,B|296:79|292:110|304:135,1,64,0|0,3:0|3:0,0:0:0:0:
480,211,44769,1,0,1:0:0:0:
467,130,45019,1,0,3:0:0:0:
352,312,45269,6,0,L|363:167,1,128,4|0,3:2|1:0,0:0:0:0:
369,97,46019,1,0,0:0:0:0:
149,141,46269,2,0,B|141:172|156:203|181:219,1,64,0|0,3:0|3:0,0:0:0:0:
304,38,46769,2,0,B|274:24|241:29|217:47,1,64,0|0,1:0|3:0,0:0:0:0:
283,236,47269,6,0,L|268:101,1,128,4|0,3:1|1:0,0:0:0:0:
365,151,48019,1,0,0:0:0:0:
185,282,48269,1,0,3:0:0:0:
185,282,48519,1,0,3:0:0:0:
374,239,48769,1,0,1:0:0:0:
374,239,49019,1,0,3:0:0:0:
121,338,49269,6,0,B|99:315|94:283|105:255,1,64,4|0,3:2|3:0,0:0:0:0:
254,319,49769,1,0,1:0:0:0:
275,242,50019,1,0,0:0:0:0:
88,196,50269,2,0,L|13:209,2,64,0|0|0,3:0|3:0|1:0,0:0:0:0:
170,220,51019,1,0,3:0:0:0:
29,62,51269,6,0,B|113:67|113:67|173:98,1,128,4|0,3:1|1:0,0:0:0:0:
432,242,52269,2,0,B|449:218|451:188|440:163,1,64,0|0,3:0|3:0,0:0:0:0:
264,272,52769,2,0,B|268:299|287:320|311:329,1,64,0|0,1:0|3:0,0:0:0:0:
346,124,53269,6,0,L|339:269,1,128,4|0,3:2|1:0,0:0:0:0:
104,146,54269,1,0,3:0:0:0:
170,88,54519,1,0,3:0:0:0:
253,288,54769,1,0,1:0:0:0:
171,269,55019,1,0,3:0:0:0:
366,91,55269,6,0,B|399:95|427:114|443:140,1,64,4|0,3:1|3:0,0:0:0:0:
459,314,55769,2,0,B|461:285|478:261|501:248,1,64,0|0,1:0|3:0,0:0:0:0:
255,192,56269,5,2,1:3:0:0:
411,319,59893,6,0,B|420:329|434:331|446:326,5,23.9999992675781,2|0|0|0|0|0,0:3|0:0|0:0|0:0|0:0|0:0,0:0:0:0:
338,355,60346,2,0,B|325:360|316:371|313:384,5,23.9999992675781,2|0|0|0|0|0,0:3|0:0|0:0|0:0|0:0|0:0,0:0:0:0:
345,278,60800,5,0,1:0:0:0:
341,261,60875,1,0,1:0:0:0:
337,245,60951,2,0,B|304:236|304:236|264:236,1,64,0|0,1:0|1:0,0:0:0:0:
206,257,61177,1,0,1:0:0:0:
191,252,61253,2,0,B|172:224|172:224|168:182,1,64,0|0,1:0|1:0,0:0:0:0:
192,123,61479,1,0,1:0:0:0:
181,109,61555,2,0,L|102:101,1,64,0|0,1:0|1:0,0:0:0:0:
260,56,61857,2,0,L|331:50,1,64,0|0,1:0|1:0,0:0:0:0:
338,50,62310,5,4,3:2:0:0:
342,137,62461,2,0,B|372:137|399:123|415:100,1,68.0000012969971,0|0,1:0|0:0,0:0:0:0:
267,182,62765,2,0,B|249:206|247:237|259:263,1,68.0000012969971,0|0,3:0|3:0,0:0:0:0:
263,97,63070,2,0,B|242:76|212:69|185:76,1,68.0000012969971,0|0,1:0|0:0,0:0:0:0:
62,155,63374,5,0,3:0:0:0:
62,155,63526,1,0,3:0:0:0:
185,250,63678,2,0,L|280:244,1,68.0000012969971,0|0,1:0|0:0,0:0:0:0:
398,198,63983,1,0,3:0:0:0:
316,301,64135,1,0,3:0:0:0:
342,137,64287,1,0,1:0:0:0:
316,301,64439,6,0,B|306:273|286:256|286:256|229:261,1,95.9999970703126,0|0,3:0|3:0,0:0:0:0:
182,324,64896,6,0,B|149:324|122:303|111:276,1,68.0000012969971,0|0,1:0|0:0,0:0:0:0:
245,172,65201,1,0,3:0:0:0:
245,172,65353,1,0,3:0:0:0:
110,84,65505,2,0,L|31:77,1,68.0000012969971,0|0,1:0|0:0,0:0:0:0:
248,24,65810,6,0,B|271:44|280:75|273:103,1,68.0000012969971,0|0,3:0|3:0,0:0:0:0:
115,229,66115,2,0,B|115:205|126:183|142:168,1,68.0000012969971,0|0,1:0|0:0,0:0:0:0:
316,301,66419,2,0,L|406:304,1,68.0000012969971,0|0,3:0|3:0,0:0:0:0:
245,172,66724,1,0,1:0:0:0:
147,356,66876,6,0,B|191:353|191:353|200:349|200:349|250:347,1,95.9999970703126,0|0,3:0|3:0,0:0:0:0:
241,261,67333,6,0,B|220:244|192:240|168:248,1,68.0000012969971,0|0,1:0|0:0,0:0:0:0:
326,384,67637,1,0,3:0:0:0:
326,384,67790,1,0,3:0:0:0:
315,219,67942,1,0,1:0:0:0:
444,345,68094,6,0,B|464:308|470:268|466:230,1,111.999996582031,0|0,3:0|3:0,0:0:0:0:
425,157,68551,5,0,1:0:0:0:
315,219,68703,2,0,L|228:211,1,68.0000012969971,0|0,0:0|3:0,0:0:0:0:
141,140,69008,1,0,3:0:0:0:
179,310,69160,1,0,1:0:0:0:
141,140,69313,6,0,B|136:180|136:180|138:193|138:193|132:243,1,95.9999970703126,0|0,3:0|3:0,0:0:0:0:
210,88,69769,6,0,B|195:63|166:51|140:55,1,68.0000012969971,0|0,1:0|0:0,0:0:0:0:
52,159,70074,1,0,3:0:0:0:
52,159,70226,1,0,3:0:0:0:
224,170,70379,2,0,L|300:163,1,68.0000012969971,0|0,1:0|3:0,0:0:0:0:
456,60,70683,5,0,1:0:0:0:
441,67,70988,1,8,0:3:0:0:
466,287,71292,5,0,1:0:0:0:
410,227,71444,1,8,0:3:0:0:
331,252,71597,1,4,0:3:0:0:
431,150,71749,1,0,1:0:0:0:
431,150,72076,5,4,3:2:0:0:
326,95,72228,2,0,B|294:93|266:112|254:139,1,68.0000012969971,0|0,1:0|0:0,0:0:0:0:
255,277,72533,1,0,3:0:0:0:
255,277,72685,1,0,3:0:0:0:
131,190,72837,2,0,L|126:116,1,68.0000012969971,0|0,1:0|0:0,0:0:0:0:
2,241,73142,6,0,B|30:260|63:261|91:247,1,68.0000012969971,0|0,3:0|3:0,0:0:0:0:
241,195,73446,2,0,B|264:190|287:196|305:208,1,68.0000012969971,0|0,1:0|0:0,0:0:0:0:
363,340,73751,1,0,3:0:0:0:
255,277,73903,1,0,3:0:0:0:
423,216,74055,1,0,1:0:0:0:
313,68,74208,6,0,B|345:93|364:129|369:165,1,95.9999970703126,0|0,3:0|3:0,0:0:0:0:
230,104,74665,6,0,L|223:24,1,68.0000012969971,0|0,1:0|0:0,0:0:0:0:
241,195,74969,1,0,3:0:0:0:
241,195,75121,1,0,3:0:0:0:
145,75,75274,2,0,B|115:74|88:90|73:113,1,68.0000012969971,0|0,1:0|0:0,0:0:0:0:
146,263,75578,6,0,L|154:186,1,68.0000012969971,0|0,3:0|3:0,0:0:0:0:
40,329,75883,2,0,L|33:249,1,68.0000012969971,0|0,1:0|0:0,0:0:0:0:
206,325,76187,2,0,B|239:331|271:317|291:293,1,68.0000012969971,0|0,3:0|3:0,0:0:0:0:
310,103,76492,1,0,1:0:0:0:
241,195,76644,6,0,B|286:192|286:192|294:188|294:188|339:184,1,95.9999970703126,0|0,3:0|3:0,0:0:0:0:
416,153,77101,6,0,B|439:173|448:202|443:230,1,68.0000012969971,0|0,1:0|0:0,0:0:0:0:
314,267,77406,1,0,3:0:0:0:
335,184,77558,1,0,3:0:0:0:
440,314,77710,1,0,1:0:0:0:
293,351,77863,6,0,B|337:353|377:370|409:395,1,111.999996582031,0|0,3:0|3:0,0:0:0:0:
229,292,78319,5,0,1:0:0:0:
145,379,78472,2,0,L|73:385,1,68.0000012969971,0|0,0:0|3:0,0:0:0:0:
185,217,78776,1,0,3:0:0:0:
229,292,78929,1,0,1:0:0:0:
303,104,79081,6,0,B|245:112|245:112|227:129|215:157,1,95.9999970703126,0|0,3:0|3:0,0:0:0:0:
335,184,79538,6,0,L|418:176,1,68.0000012969971,0|0,1:0|0:0,0:0:0:0:
332,25,79842,1,0,3:0:0:0:
332,25,79995,1,0,3:0:0:0:
222,141,80147,2,0,B|189:138|162:122|143:99,1,68.0000012969971,0|0,1:0|3:0,0:0:0:0:
276,308,80451,5,0,1:0:0:0:
283,292,80756,1,8,0:3:0:0:
60,272,81061,5,0,1:0:0:0:
85,190,81213,1,8,0:3:0:0:
129,327,81365,2,0,B|151:346|181:350|207:340,1,68.0000012969971,4|0,0:3|0:0,0:0:0:0:
275,183,81670,5,0,1:0:0:0:
357,306,81822,1,0,3:0:0:0:
333,143,81974,5,0,1:0:0:0:
321,299,82127,1,0,3:0:0:0:
397,171,82279,5,0,1:0:0:0:
283,292,82431,1,0,3:0:0:0:
412,241,82583,5,0,1:0:0:0:
245,284,82736,1,0,3:0:0:0:
333,143,82888,6,0,L|336:76,1,68.0000012969971,0|8,1:0|0:3,0:0:0:0:
320,85,83116,1,8,0:3:0:0:
307,97,83193,2,0,B|330:119|363:122|388:107,1,68.0000012969971,8|4,0:3|0:3,0:0:0:0:
251,28,83497,1,8,0:3:0:0:
224,108,83649,1,8,0:3:0:0:
279,176,83802,1,4,0:3:0:0:
85,235,83954,6,0,B|59:205|65:158|102:134|137:139,1,142.49999619484,4|0,3:2|3:0,0:0:0:0:
149,301,84390,2,0,L|154:376,1,75.9999979705811,0|0,1:0|0:0,0:0:0:0:
328,305,84692,2,0,L|321:223,1,75.9999979705811,0|0,3:0|3:0,0:0:0:0:
250,362,84994,1,0,1:0:0:0:
416,259,85145,6,0,B|419:198|419:198|404:171|404:171|411:93,1,151.999995941162,4|0,3:2|3:0,0:0:0:0:
321,229,85598,1,0,1:0:0:0:
340,57,85749,2,0,B|359:31|390:20|419:22,1,75.9999979705811,0|0,0:0|3:0,0:0:0:0:
254,74,86051,2,0,B|220:74|192:49|187:18,1,75.9999979705811,0|0,3:0|1:0,0:0:0:0:
311,141,86353,1,0,0:0:0:0:
298,151,86429,1,0,0:0:0:0:
285,159,86504,6,0,L|208:166,1,60.0000022888184,4|0,3:2|3:0,0:0:0:0:
49,233,86806,2,0,B|78:211|78:211|157:215,1,107.999996704102,4|0,1:0|0:0,0:0:0:0:
245,330,87108,6,0,B|270:341|297:342|321:334,1,60.0000022888184,0|0,3:0|3:0,0:0:0:0:
381,186,87410,1,0,1:0:0:0:
285,159,87561,1,0,3:0:0:0:
395,273,87712,6,0,L|478:282,1,64,0|0,1:0|3:0,0:0:0:0:
248,234,88014,2,0,L|330:244,1,64,8|4,0:3|0:3,0:0:0:0:
78,210,88317,1,0,1:0:0:0:
142,322,88468,1,0,1:0:0:0:
164,135,88619,1,0,1:0:0:0:
222,349,88770,6,0,B|164:358|164:358|133:341|133:341|60:355,1,151.999995941162,4|0,3:2|3:0,0:0:0:0:
248,234,89223,2,0,B|279:251|295:284|290:316,1,75.9999979705811,0|0,1:0|0:0,0:0:0:0:
202,153,89525,2,0,B|198:118|215:87|243:71,1,75.9999979705811,0|0,3:0|3:0,0:0:0:0:
157,236,89827,1,0,1:0:0:0:
290,154,89978,6,0,L|446:158,1,151.999995941162,4|0,3:2|3:0,0:0:0:0:
313,68,90431,1,0,1:0:0:0:
346,290,90582,2,0,B|380:293|411:275|426:248,1,75.9999979705811,0|0,0:0|3:0,0:0:0:0:
290,154,90884,1,0,3:0:0:0:
270,331,91035,2,0,B|238:336|207:323|188:299,1,75.9999979705811,0|0,1:0|3:0,0:0:0:0:
172,141,91337,5,4,1:2:0:0:
127,274,91488,1,0,3:0:0:0:
166,109,91639,5,0,1:0:0:0:
202,257,91790,1,0,3:0:0:0:
162,75,91941,5,0,1:0:0:0:
70,221,92093,1,0,3:0:0:0:
158,38,92244,5,0,1:0:0:0:
251,191,92395,1,0,3:0:0:0:
77,80,92546,6,0,L|34:76,2,37.9999989852906,0|0|0,1:0|1:0|1:0,0:0:0:0:
258,105,92848,1,0,1:0:0:0:
70,221,92999,1,0,1:0:0:0:
251,191,93150,5,8,0:3:0:0:
151,148,93301,1,8,0:3:0:0:
166,262,93452,1,4,0:3:0:0:
240,87,93603,6,0,B|297:73|297:73|330:82|330:82|408:64,1,151.999995941162,4|0,3:2|3:0,0:0:0:0:
311,254,94056,2,0,B|328:219|367:202|402:211,1,88.000002685547,4|0,1:0|0:0,0:0:0:0:
268,331,94358,2,0,L|170:323,1,75.9999979705811,0|0,3:0|3:0,0:0:0:0:
251,191,94660,1,0,1:0:0:0:
277,343,94811,6,0,L|104:328,1,151.999995941162,4|0,3:2|3:0,0:0:0:0:
398,243,95264,2,0,B|434:252|456:288|449:322,1,75.9999979705811,0|0,1:0|0:0,0:0:0:0:
311,254,95566,1,0,3:0:0:0:
311,254,95717,1,0,3:0:0:0:
420,153,95868,2,0,L|505:148,1,75.9999979705811,0|0,1:0|0:0,0:0:0:0:
270,53,96171,5,8,3:0:0:0:
251,191,96322,1,0,3:0:0:0:
283,43,96473,2,0,B|319:30|319:30|374:35,1,75.9999979705811,0|0,1:0|3:0,0:0:0:0:
184,246,96775,5,4,3:0:0:0:
154,89,96926,1,0,3:0:0:0:
194,258,97077,2,0,B|231:275|231:275|288:273,1,75.9999979705811,0|0,1:0|3:0,0:0:0:0:
72,133,97379,5,2,1:3:0:0:
82,295,98512,6,0,L|158:291,1,64,4|0,3:2|3:0,0:0:0:0:
357,240,99012,1,0,1:0:0:0:
317,308,99262,1,0,0:0:0:0:
214,111,99512,2,0,B|232:85|262:73|291:76,1,64,0|0,3:0|3:0,0:0:0:0:
106,221,100012,2,0,B|89:197|88:167|99:142,1,64,0|0,1:0|3:0,0:0:0:0:
317,308,100512,6,0,L|163:315,1,128,4|0,3:1|1:0,0:0:0:0:
242,233,101262,1,0,0:0:0:0:
50,293,101512,2,0,B|29:314|24:345|35:371,1,64,0|0,3:0|3:0,0:0:0:0:
176,170,102012,2,0,B|171:141|148:120|121:117,1,64,0|0,1:0|3:0,0:0:0:0:
365,257,102512,6,0,B|401:249|424:214|417:176|393:154,1,128,4|0,3:2|1:0,0:0:0:0:
268,114,103262,1,0,0:0:0:0:
350,14,103512,2,0,L|345:98,1,64,0|0,3:0|3:0,0:0:0:0:
171,103,104012,2,0,L|167:39,1,64,0|0,1:0|3:0,0:0:0:0:
317,239,104512,5,4,3:1:0:0:
317,239,104762,1,0,3:0:0:0:
179,192,105012,1,0,1:0:0:0:
226,288,105262,1,0,0:0:0:0:
290,113,105512,2,0,B|292:84|280:57|259:40,1,64,0|0,3:0|3:0,0:0:0:0:
82,169,106012,1,0,1:0:0:0:
269,188,106262,1,0,1:0:0:0:
255,199,106387,1,0,1:0:0:0:
242,210,106512,6,0,L|234:350,1,128,4|0,3:2|1:0,0:0:0:0:
322,282,107260,1,0,0:0:0:0:
131,258,107509,2,0,B|109:279|102:310|112:337,1,64,0|0,3:0|3:0,0:0:0:0:
328,188,108008,2,0,B|322:157|299:135|271:128,1,64,0|0,1:0|3:0,0:0:0:0:
80,109,108507,6,0,L|238:96,1,128,4|0,3:1|1:0,0:0:0:0:
282,53,109256,1,0,0:0:0:0:
108,15,109505,2,0,L|193:22,1,64,0|0,3:0|3:0,0:0:0:0:
17,35,110004,1,0,1:0:0:0:
226,125,110254,1,0,3:0:0:0:
31,186,110503,5,4,3:2:0:0:
126,135,110753,1,0,3:0:0:0:
65,257,111002,1,0,1:0:0:0:
167,157,111252,1,0,0:0:0:0:
131,303,111501,1,0,3:0:0:0:
210,160,111751,1,0,3:0:0:0:
209,326,112000,1,0,1:0:0:0:
253,151,112250,1,0,3:0:0:0:
287,325,112499,6,0,B|334:346|334:346|428:336,1,128,4|0,3:1|1:0,0:0:0:0:
243,210,113247,1,0,3:0:0:0:
252,224,113372,1,0,3:0:0:0:
261,238,113497,1,0,3:0:0:0:
205,137,113751,1,0,1:0:0:0:
215,374,114005,1,0,1:0:0:0:
157,211,114259,1,0,3:0:0:0:
353,273,114513,6,0,B|396:268|426:225|413:178|381:157,1,128,4|0,3:2|1:0,0:0:0:0:
321,129,115263,1,0,0:0:0:0:
132,282,115513,2,0,B|101:275|79:250|73:222,1,64,0|0,3:0|3:0,0:0:0:0:
160,83,116013,2,0,B|181:108|182:142|165:167,1,64,0|0,1:0|3:0,0:0:0:0:
164,155,116388,1,0,1:0:0:0:
151,166,116513,6,0,L|289:180,1,128,4|0,3:1|1:0,0:0:0:0:
278,178,117513,2,0,B|253:194|243:223|249:249,1,64,0|0,3:0|3:0,0:0:0:0:
406,73,118013,2,0,B|384:49|352:41|323:48,1,64,0|0,1:0|3:0,0:0:0:0:
145,115,118513,6,0,L|65:125,2,64,4|0|0,3:1|3:0|1:0,0:0:0:0:
274,98,119263,1,0,0:0:0:0:
157,273,119513,1,0,3:0:0:0:
288,216,119763,1,0,3:0:0:0:
131,194,120013,1,0,1:0:0:0:
241,283,120263,1,0,3:0:0:0:
179,119,120513,6,0,L|85:108,1,64,4|0,3:2|3:0,0:0:0:0:
330,36,121013,2,0,B|350:56|361:83|361:109,1,64,0|0,1:0|0:0,0:0:0:0:
353,107,121388,1,0,1:0:0:0:
342,119,121513,2,0,L|425:128,1,64,0|0,3:0|3:0,0:0:0:0:
294,214,122013,2,0,L|211:223,1,64,0|0,1:0|3:0,0:0:0:0:
489,328,122513,6,0,B|509:286|509:286|501:196,1,128,4|0,3:2|1:0,0:0:0:0:
493,115,123261,1,0,0:0:0:0:
381,302,123510,2,0,B|355:307|330:298|313:280,1,64,0|0,3:0|3:0,0:0:0:0:
347,92,124009,2,0,B|374:104|389:132|387:159,1,64,0|0,1:0|3:0,0:0:0:0:
170,129,124508,6,0,L|174:47,1,64,4|0,3:1|3:0,0:0:0:0:
74,240,125007,2,0,L|79:314,1,64,0|0,1:0|0:0,0:0:0:0:
87,316,125382,1,0,1:0:0:0:
97,326,125506,2,0,B|117:302|146:293|174:297,1,64,0|0,3:0|3:0,0:0:0:0:
319,206,126005,2,0,B|295:183|262:177|233:185,1,64,0|0,1:0|3:0,0:0:0:0:
409,336,126504,6,0,L|414:182,1,128,4|0,3:2|1:0,0:0:0:0:
443,124,127253,1,0,0:0:0:0:
226,82,127502,1,0,3:0:0:0:
262,156,127752,1,0,3:0:0:0:
412,16,128001,1,0,1:0:0:0:
329,2,128251,1,0,3:0:0:0:
413,255,128500,6,0,B|435:275|464:282|491:276,1,64,4|0,3:1|3:0,0:0:0:0:
216,316,128999,2,0,B|194:338|187:367|193:395,1,64,0|0,1:0|3:0,0:0:0:0:
256,41,129498,5,2,1:3:0:0:
